nDiki : AVI

AVI

スポンサード リンク

2005年1月28日 (金)

劇場版 ディスプレイキャプチャー あれ ~圧縮された動画~ 3.0

Windows の画面を動画でキャプチャするソフト(群)。 ピットマップファイル、AVIMPEG-1 を生成することができる。 マウスカーソルもキャプチャ可能。

槻ノ木隆氏がBroadBand Watch記事中、BL-C10、BB-NCP100の出力画面をキャプチャするのに利用していたのを読んで知ったソフトウェアである。

以前使ったWinkはコマ取りして編集するタイプなのに対し、こちらはムービーにしてしまうもの。 オフィスソフトウェアのチュートリアル作成には前者が、ゲームや動きのあるソフトウェアのデモ作成にはこちらが適しているかと思う。

OpenGL を使っているソフトウェアのキャプチャでちょっと試してみた。 負荷がかかる分ちょっと重く感じるようになるが許容範囲か。 動画中、録画時の垂直同期の関係のせいかズレの生じているフレームがあるがこれも許容範囲かな。

MPEG-1で保存するとあまり綺麗ではないが、Windowsインストール済みのCODECを使うことができるので、適切なものを選んでAVIで保存すると綺麗な動画になる。

レートとかよさそげな値をみつけておいて、ちょっとしたデモを作成する際に使ってみたい。

スポンサード リンク
[ 1月28日全て ]

2008年4月9日 (水)

Flickr動画共有機能がついたので VQ1005動画を撮ってみた

になっていた Flickr動画共有機能の提供が始まったので、VQ1005 で初めて動画撮影してみてアップロードした。

VQ1005AVI ファイルは問題なくアップロード・閲覧できる。

基本的にスチールメインなので、動画っていっても何を撮るのかはたと困ってしまう。 しかし共有できる環境ができることでもしかしたらまた別のスイッチが入るかも。

[ 4月9日全て ]

2008年4月10日 (木)

今日のさえずり - みどりの窓口で、明日からの乗車券つかまされてた

naney:2402587264

2008年04月09日

2008年04月10日

  • 10:20 今日 11:00 から消防訓練との連絡 (今頃)。
  • 11:39 同行者が飛び乗った電車に、乗り込めなかった。L:秋葉原駅[mb]
  • 11:55 Suica + 新幹線切符での初改札通過失敗。秋葉原駅のみどりの窓口で、明日からの乗車券つかまされてた。[mb]
  • 11:58 明日の切符だけれど、JR 側のミスなので有人改札通過にしてもらった。[mb]
  • 12:20 [photo] 明日の乗車券を今日の乗車券に http://tinyurl.com/3hsva7
  • 17:53 熊谷駅までのバスの中で PC 作業しようと思ったが、すぐ乗り物酔い。 L:埼玉県熊谷市原島643[mb]
  • 18:45 イヤスコープGLの「約3500画素」というのが気になる。[mb]
  • 19:03 東京駅着いた。[mb]
  • 19:21 丸善ユナイテッドビーズミニ6穴 5mm 方眼リフィルがあって狂喜乱舞した。当然14パック買い占めた。[mb]
[ 4月10日全て ]

2009年5月25日 (月)

IXY DIGITAL の動画を FinePix で見たいんだけれど

IXY DIGITAL 210 IS を買ってから、FinePix F10 はもっぱら動画再生 / スライドショー機になっている。 IXY DIGITAL 210 IS で撮った動画FinePix F10 で見られるようにしようかと、変換を試みたのだけれど「再生できません」表示が出てしまった。

FFmpeg で試した変換はコレ:

 ffmpeg -i ixy.mov
        -f avi
        -vcodec mjpeg
        -pix_fmt yuvj422p
        -b 9400k
        -acodec pcm_u8
        -ar 16000
        -ab 128k
        finpix.avi

動画H.264 から Motion JPEG に変換。FFmpeg の Input として表示される内容はこれで FinePix で撮ったのとだいたい同じになる。

ちなみにそれぞれで撮ったものを FFmpeg に食わせてみると次のような感じになる。

IXY DIGITAL 210 IS

 Input #0, mov,mp4,m4a,3gp,3g2,mj2, from 'ixy.mov':
   Duration: 00:00:29.03, start: 0.000000, bitrate: 10672 kb/s
     Stream #0.0(eng): Video: h264, yuv420p, 640x480, 30 tbr, 30 tbn, 60 tbc
     Stream #0.1(eng): Audio: pcm_s16le, 44100 Hz, mono, s16, 705 kb/s

FinePix F10

 Input #0, avi, from 'finepix-original.avi':
   Duration: 00:00:31.00, start: 0.000000, bitrate: 9353 kb/s
     Stream #0.0: Video: mjpeg, yuvj422p, 640x480, 30 tbr, 30 tbn, 30 tbc
     Stream #0.1: Audio: pcm_u8, 16000 Hz, mono, s16, 128 kb/s

AVI 中の何かの値をチェックして FinePix で撮ったもの以外をはじいているのか、Motion JPEG の形式が違うのかまではまだ追いきれず。

要継続調査。

[ 5月25日全て ]

About Me

Naney Naney (なにい)です。株式会社ミクシィでマネージャー・プロダクトオーナーをしています。

nDiki1999年1月に始めたコンピュータ日誌を前身とする NaneyWeb 日記(兼パーソナルナレッジベース)です。ちょっとしたノートは nNote にあります。

follow us in feedly

※内容は個人的見解であり所属組織とは関係ありません。

月別インデックス
Process Time: 0.109674s / load averages: 0.37, 0.44, 0.52
nDiki by WATANABE Yoshimasa (Naney, Google profile)
Powered by DiKicker